<?xml version="1.0" standalone="no"?>
<!DOCTYPE svg PUBLIC "-//W3C//DTD SVG 1.1//EN" "http://www.w3.org/Graphics/SVG/1.1/DTD/svg11.dtd">
<svg xmlns="http://www.w3.org/2000/svg">
<metadata>Copyright (C) 2015 by original authors @ fontello.com</metadata>
<defs>
<font id="ripplehire" horiz-adv-x="1000" >
<font-face font-family="ripplehire" font-weight="400" font-stretch="normal" units-per-em="1000" ascent="850" descent="-150" />
<missing-glyph horiz-adv-x="1000" />
<glyph glyph-name="glyph" unicode="&#xe800;" d="m-11-161l278 93-186 186z m167 347l178-178 512 511-178 179z m583 583l179-178 82 77q11 10 11 27t-11 28l-127 127q-13 11-28 11t-27-11z" horiz-adv-x="1000" />
<glyph glyph-name="glyph-1" unicode="&#xe801;" d="m19 428q0 166 119 285t285 118 285-118 118-285q0-119-65-218l250-250q6-7 6-15t-6-15l-91-91q-7-6-15-6t-15 6l-250 250q-99-65-217-65-167 0-285 119t-119 285z m128 0q0-114 81-195t195-80 194 80 81 195-81 194-194 81-195-81-81-194z" horiz-adv-x="1000" />
<glyph glyph-name="glyph-2" unicode="&#xe802;" d="m0-108v166q0 18 12 30t30 12h166q18 0 30-12t12-30v-166q0-18-12-30t-30-12h-166q-18 0-30 12t-12 30z m0 333q0-17 12-30t30-12h166q18 0 30 12t12 30v167q0 17-12 29t-30 12h-166q-18 0-30-12t-12-29v-167z m0 333v167q0 18 12 30t30 12h166q18 0 30-12t12-30v-167q0-17-12-29t-30-12h-166q-18 0-30 12t-12 29z m333-666v166q0 18 12 30t30 12h583q18 0 30-12t12-30v-166q0-18-12-30t-30-12h-583q-17 0-30 12t-12 30z m0 333v167q0 17 12 29t30 12h583q18 0 30-12t12-29v-167q0-17-12-30t-30-12h-583q-17 0-30 12t-12 30z m0 333v167q0 18 12 30t30 12h583q18 0 30-12t12-30v-167q0-17-12-29t-30-12h-583q-17 0-30 12t-12 29z" horiz-adv-x="1000" />
<glyph glyph-name="glyph-3" unicode="&#xe803;" d="m24 228l349-350 682 684-177 176-505-505-172 172z" horiz-adv-x="1000" />
<glyph glyph-name="glyph-4" unicode="&#xe804;" d="m88 115l235 235-235 235 177 177 235-235 235 235 177-177-235-235 235-235-177-177-235 235-235-235z" horiz-adv-x="1000" />
<glyph glyph-name="glyph-5" unicode="&#xe805;" d="m22 351q0-28 5-62l126-31 1-5q12-41 32-78l2-4-66-112q37-49 87-87l111 67 4-2q38-22 79-33l4-1 31-126q34-5 62-5 23 0 62 5l31 126 5 1q39 11 78 33l4 2 112-67q46 36 86 87l-66 112 2 4q20 37 33 78l1 5 126 31q4 34 4 62 0 23-4 61l-126 31-1 5q-14 43-33 78l-2 4 66 112q-36 48-86 87l-112-67-4 2q-38 21-78 33l-5 1-31 126q-34 4-62 4-22 0-62-4l-31-126-4-1q-42-12-79-33l-4-2-111 67q-49-39-87-87l66-112-2-4q-21-39-32-78l-1-5-126-31q-5-40-5-61z m299 0q0 73 52 126t127 52 127-52 52-126q0-74-52-127t-127-52-127 52-52 127z" horiz-adv-x="1000" />
<glyph glyph-name="glyph-6" unicode="&#xe806;" d="m83 704v42q0 8 7 14t14 7h229v83q0 34 25 59t59 24h250q34 0 58-24t25-59v-83h229q9 0 15-7t6-14v-42q0-9-6-15t-15-6h-875q-9 0-15 6t-6 15z m84-771v667h750v-667q0-34-25-59t-59-25h-583q-34 0-59 25t-24 59z m83 0h83v584h-83v-584z m167 0h83v584h-83v-584z m0 834h250v83h-250v-83z m166-834h84v584h-84v-584z m167 0h83v584h-83v-584z" horiz-adv-x="1000" />
<glyph glyph-name="glyph-7" unicode="&#xe807;" d="m3 350q0 135 67 249t181 181 249 67 249-67 181-181 67-249-67-249-181-181-249-67-249 67-181 181-67 249z m152 0q0-142 101-244t244-101 244 101 101 244-101 244-244 101-244-101-101-244z m262-83v333h83v-250h167v-83h-250z" horiz-adv-x="1000" />
<glyph glyph-name="glyph-8" unicode="&#xe808;" d="m688 483h-375l-313-375v-250c0-34 28-62 63-62h875c34 0 62 28 62 62v250l-312 375z m-63-500h-250l-62 63h375l-63-63z m-544 125l261 313h316l261-313h-838z m197 188h444l-52 62h-340z m-104-125h652l-52 62h-548z" horiz-adv-x="1000" />
<glyph glyph-name="glyph-9" unicode="&#xe809;" d="m19 350q0 98 38 187t103 153 153 103 187 38q165 0 296-102l121 121v-333h-334l123 122q-93 67-206 67-147 0-252-104t-104-252h-125z m64-500v333h334l-123-122q94-67 206-67 148 0 252 104t104 252h125q0-98-38-187t-103-153-153-103-187-38q-165 0-296 102z" horiz-adv-x="1000" />
<glyph glyph-name="glyph-10" unicode="&#xe80a;" d="m83-150h917v1000h-917v-1000z m84 83v750h750v-750h-750z m83 84v83h83v-83h-83z m0 166v84h83v-84h-83z m0 167v83h83v-83h-83z m0 167v83h83v-83h-83z m167-500h416v83h-416v-83z m0 166v84h416v-84h-416z m0 167v83h416v-83h-416z m0 167v83h416v-83h-416z" horiz-adv-x="1000" />
<glyph glyph-name="glyph-11" unicode="&#xe80b;" d="m83-150v917h84v-917h-84z m167 333q50 50 106 70t107 15 101-19 99-25 92-9 86 35 76 100v417q-34-68-85-97t-106-24-115 21-116 33-105 21-86-25-54-96v-417z" horiz-adv-x="1000" />
<glyph glyph-name="glyph-12" unicode="&#xe80c;" d="m0 433l1 396q0 9 6 15t15 6h395l583-583-417-417z m123 211q0-35 25-59 25-25 59-25t60 25q24 24 24 59t-24 59q-25 25-60 25t-59-25q-25-24-25-59z" horiz-adv-x="1000" />
<glyph glyph-name="glyph-13" unicode="&#xe80d;" d="m1 433l1 396q0 9 6 15t15 6h395l583-583-417-417z m122 211q0-35 25-59 25-25 60-25t59 25q25 24 25 59t-25 59q-24 25-59 25t-60-25q-25-24-25-59z m461 206h84l583-583-417-417-41 42 375 375z" horiz-adv-x="1000" />
<glyph glyph-name="glyph-14" unicode="&#xe80e;" d="m123 471q0 103 51 193t137 143 189 54q103 0 189-53t137-141 51-191-61-227q-61-95-139-197t-125-158l-48-55q-8 8-22 22t-56 59-80 90-86 113-84 130q-53 115-53 218z m162 22q0-89 63-152t151-63q89 0 152 63t63 152-63 152-152 63-151-63-63-152z" horiz-adv-x="1000" />
<glyph glyph-name="glyph-15" unicode="&#xe80f;" d="m0 17q5 110 34 198t86 161 154 115 226 50v226l500-378-500-373v251q-79-2-152-17t-142-43-123-77-83-113z" horiz-adv-x="1000" />
<glyph glyph-name="glyph-16" unicode="&#xe810;" d="m19 350q0 98 38 187t103 153 153 103 187 38 187-38 153-103 103-153 38-187-38-187-103-153-153-103-187-38-187 38-153 103-103 153-38 187z m361 209l48-251q4-17 18-29t32-12h45q16 0 31 12t18 29l48 251q3 17-7 29t-26 12h-173q-17 0-27-12t-7-29z m37-459h166v83h-166v-83z" horiz-adv-x="1000" />
<glyph glyph-name="glyph-17" unicode="&#xe811;" d="m820 381c76-53 138-126 180-210-93-186-282-313-500-313-61 0-120 10-175 29l76 76c32-7 66-11 99-11 88 0 173 25 247 72 58 38 108 88 146 147-37 57-84 106-141 143l68 67z m-320-392c-22 0-44 3-64 8l306 306c5-20 8-42 8-64 0-138-112-250-250-250z m438 682h-53l-214-215c-54 18-111 27-171 27-218 0-407-127-500-312 42-83 103-155 177-208l-177-177v-53h53l885 885v53z m-532-307c47 0 86-34 93-79l-107-107c-45 7-79 46-79 92 0 52 42 94 93 94z m-298-193c37 59 87 109 146 147 3 2 7 4 11 7-10-27-15-56-15-86 0-57 19-110 52-152l-58-57c-54 37-101 85-136 141z" horiz-adv-x="1000" />
<glyph glyph-name="glyph-18" unicode="&#xe812;" d="m1000 283l-345 50-155 313-154-313-346-50 250-244-59-344 309 163 309-163-59 344 250 244z m-500-348l-218-115 42 243-177 172 244 36 109 221 109-221 244-36-176-172 41-243-218 115z" horiz-adv-x="1000" />
<glyph glyph-name="glyph-19" unicode="&#xe813;" d="m0 183v500q0 35 25 59t58 25h834q34 0 58-25t25-59v-500q0-34-25-58t-58-25h-497l-253-250v250h-84q-34 0-58 25t-25 58z" horiz-adv-x="1000" />
<glyph glyph-name="glyph-20" unicode="&#xe814;" d="m0-150v667h1000v-667h-1000z m0 750v83h167q0 35 24 59t59 25h250q34 0 59-25t24-59h417v-83h-1000z" horiz-adv-x="1000" />
<glyph glyph-name="glyph-21" unicode="&#xe815;" d="m1-150l250 583h1000l-250-583h-1000z m0 333v500h167q0 35 24 59t59 25h250q34 0 59-25t24-59h417v-166h-833z" horiz-adv-x="1000" />
<glyph glyph-name="glyph-22" unicode="&#xe816;" d="m-84 350v42q0 20 21 41t41 31l21 11v-208l-9 4t-20 12-25 18-20 23-9 26z m167-83v227t1 6 1 5 2 4 2 3 4 3 5 1 6 1h167l562 208v-708l-562 166h-32l39-230q2-10-2-14t-9-5-18-1h-76q-16 0-28 12t-16 29q-46 281-46 293z m834-250v708q0 18 12 30t29 12q17 0 30-12t12-30v-708q0-17-12-30t-30-12q-17 0-29 12t-12 30z" horiz-adv-x="1000" />
<glyph glyph-name="glyph-23" unicode="&#xe817;" d="m62 142q0 17 11 29t28 12h15l97 145 53 272q12 64 63 117t120 69l-15 27q-5 15 3 26t24 11h78q17 0 24-9t3-24q-15-30-15-31 69-16 120-69t63-117l53-272 98-145h14q17 0 28-12t11-29q0-17-10-34t-26-22q-7-3-19-7t-55-17-85-21-111-16-132-7q-104 0-205 17t-148 33l-49 17q-15 6-25 23t-11 34z m352-200q10-41 34-67t52-25 53 25 32 67q-40-5-85-5t-86 5z" horiz-adv-x="1000" />
<glyph glyph-name="glyph-24" unicode="&#xe818;" d="m4 348q0 101 40 193t106 159 159 106 194 40q100 0 192-40t159-106 106-159 40-193q0-135-67-250t-181-181-249-67-250 67-182 181-67 250z m208 152q-7-27 4-77t7-73q0-7 14-37t13-50q10 0 19-4t19-13 17-11q20-10 90-35 18-7 44-26t50-32 48-9q6-15-13-46t-16-48q35-59 72-67 0-5-2-12t-3-13 3-14q87-2 185 94 25 24 39 39t28 41 18 51q-12 8-31 8t-30 7q-12 5-41 12t-43 16q-8 0-33-1t-39-1-33-5-32-14q-42-29-55-10-3 2-3 21t0 22q-5 10-22 14t-20 6q2 18-2 34t-14 23-32-17q-19-20-35 4-15 23-6 48 5 13 18 18 5 0 22-1t28-3 16-11q10-16 27-32t28-23l12-6q0 2 7 33t5 48q-3 19 12 37t19 26q4 12 8 29t7 26 13 19 29 18q-5 15 8 30 7 0 19-1t21-1 17 4 17 13q-8 19-25 35t-32 25-41 22-36 19q9 33 2 37 25-11 48-12t32 3l10 3q5 30-14 45t-54 23-47 20q-15-3-30 0-13-10-31-18t-29-10-36-7-33-5q-12-2-38 1t-38-2q-17-6-43-22t-28-29q-3-9 5-19t7-15q-2-29-23-76t-24-66z m220 113q2 10 13 25t13 21q9-8 16-8t11 5 13 12 13 10q0-20 14-55t14-36q-7 1-26 4t-30 4-26 7-25 11z m145 73v0z" horiz-adv-x="1000" />
<glyph glyph-name="glyph-25" unicode="&#xe819;" d="m0-13q0 18 13 31l500 500q-28 84 5 167t112 129q137 77 255-7l-216-115 121-194 209 105q11-145-126-222-102-58-210-19l-497-497q-13-13-31-13t-30 13l-92 92q-13 12-13 30z" horiz-adv-x="1000" />
<glyph glyph-name="glyph-26" unicode="&#xe81a;" d="m83 767v83h834v-83h-834z m42-84h750l-292-416v-250l-166-167v417z" horiz-adv-x="1000" />
<glyph glyph-name="glyph-27" unicode="&#xe81b;" d="m0 17v166h1000v-166q0-35-25-59t-58-25h-834q-34 0-58 25t-25 59z m0 250v333q0 34 25 59t58 24h250v84q0 34 25 58t59 25h166q35 0 59-25t25-58v-84h250q34 0 58-24t25-59v-333h-417v83h-166v-83h-417z m417 416h166v84h-166v-84z" horiz-adv-x="1000" />
<glyph glyph-name="glyph-28" unicode="&#xe81c;" d="m0 347q0 135 67 249t181 181 249 66 249-66 181-181 66-249-66-249-181-181-249-67-249 67-181 181-67 249z m152 0q0-144 101-244t244-101 243 101 102 244q0 142-102 243t-243 102-244-102-101-243z m91 49q0 19 12 32t33 13 32-13 13-32q0-19-13-33t-32-13q-19 0-32 13t-13 33z m90 162q0 19 14 32t32 14q19 0 32-13t13-33-13-32-32-13q-19 0-32 13t-14 32z m95-200q0 26 17 47t43 24l103 106q-8 12-8 23 0 19 14 32t32 14q19 0 32-13t13-33-13-32-32-13q-11 0-24 8l-46-121q14-18 14-42 0-30-21-52t-51-21-51 21-22 52z m239 38q0 18 13 32t33 13 32-13 13-32-14-33-31-13q-20 0-33 13t-13 33z" horiz-adv-x="1000" />
<glyph glyph-name="glyph-29" unicode="&#xe81d;" d="m-33 163q-11-80 29-145 29-47 78-74t108-27q52 0 99 24 27 13 54 34t44 38 49 53q34 37 48 51l328 328q29 29 39 70t-2 80q-23 73-98 87-16 1-24 1-38 0-65-13t-56-43l-330-336 57-56 314 311q17 18 33 32 19 19 41 19 32 0 45-30 13-33-17-63l-456-456q-43-43-104-43-46 0-83 28t-45 80q-5 29 2 55t26 52 35 42 47 45q20 17 36 34l290 290q44 43 69 66t70 45 90 22q20 0 40-3 79-14 128-79t42-146q-5-84-81-160l-210-208-211-213 6-6 57-50 431 426q56 56 79 131t9 152q-13 73-55 129t-109 86q-57 27-126 27-90 0-165-46-33-20-92-79l-427-427q-57-56-67-135z" horiz-adv-x="1000" />
<glyph glyph-name="glyph-30" unicode="&#xe81e;" d="m181 283q7-16 26-16h251q-129-365-133-382-4-18 3-27l8-6h7q12 0 22 12 9 11 229 268t220 257q12 16 4 30-6 14-25 14l-251 0q1 3 65 182t66 190q1 13-5 23l-7 7h-8q-12 0-20-13-4-5-82-93t-191-214-174-198q-13-16-5-34z" horiz-adv-x="1000" />
<glyph glyph-name="glyph-31" unicode="&#xe81f;" d="m19 196l981 653v-899l-396 227-258-328v347h-327z m393-171l560 782-560-594v-188z" horiz-adv-x="1000" />
<glyph glyph-name="glyph-32" unicode="&#xe820;" d="m1000 77l-187 188v281h-125v-156l-188 187-500-500v-31h125v-313h313v188h125v-188h312v313h125z" horiz-adv-x="1000" />
<glyph glyph-name="glyph-33" unicode="&#xe821;" d="m1000 94l-500 388-500-388v159l500 388 500-388z m-125 14v-375h-250v250h-250v-250h-250v375l375 282z" horiz-adv-x="1000" />
<glyph glyph-name="glyph-34" unicode="&#xe822;" d="m844 671c86 0 156-70 156-156 0-36-12-68-31-94l-63-63-218 219 62 63c26 19 59 31 94 31z m-781-719l-63-281 281 62 578 579-218 218-578-578z m636 364l-438-438-54 54 438 438 54-54z" horiz-adv-x="1000" />
<glyph glyph-name="glyph-35" unicode="&#xe823;" d="m774 255c-20-21-235-225-235-225-10-11-25-17-39-17-14 0-28 6-39 17 0 0-215 204-235 225-20 21-22 59 0 81 22 22 52 24 79 0l195-187 195 187c27 24 57 22 79 0 22-22 21-60 0-81z" horiz-adv-x="1000" />
<glyph glyph-name="glyph-36" unicode="&#xe824;" d="m774 112c-20 20-235 225-235 225-10 11-25 16-39 16-14 0-28-5-39-16 0 0-215-205-235-225-20-21-22-59 0-81 22-23 52-24 79 0l195 187 195-187c27-24 57-23 79 0 22 22 21 60 0 81z" horiz-adv-x="1000" />
<glyph glyph-name="mail-squared" unicode="&#xe825;" d="m696 779q67 0 114-48t47-113v-536q0-66-47-113t-114-48h-535q-67 0-114 48t-47 113v536q0 66 47 113t114 48h535z m18-590v244q-17-20-35-31-19-12-74-48t-85-55q-55-38-91-38t-92 38q-26 18-79 52t-79 51q-7 5-19 16t-17 15v-244q0-22 16-38t37-15h465q22 0 38 15t15 38z m0 320q0 23-15 39t-38 16h-465q-22 0-37-15t-16-38q0-21 17-43t38-36q26-18 76-50t73-46q1-1 9-6t12-8 11-7 14-8 12-5 12-4 12-2 11 2 13 4 12 5 13 8 11 7 12 8 10 6l149 97q19 13 37 35t17 41z" horiz-adv-x="857.1" />
<glyph glyph-name="glyph-38" unicode="&#xe826;" d="m741-39c-123 45-163 83-163 164 0 49 38 33 55 122 6 37 40 1 46 85 0 34-18 42-18 42s9 50 13 88c4 48-28 171-199 171-171 0-203-123-199-171 4-38 13-88 13-88s-18-8-18-42c6-84 40-48 46-85 17-89 55-73 55-122 0-81-40-119-163-164-124-45-204-91-204-122 0-32 0-106 0-106h940c0 0 0 74 0 106s-80 77-204 122z" horiz-adv-x="1000" />
<glyph glyph-name="glyph-39" unicode="&#xe827;" d="m900 483h-50v-750h50c55 0 100 45 100 100v550c0 55-45 100-100 100z m-900-100v-550c0-55 45-100 100-100h50v750h-50c-55 0-100-45-100-100z m670 205c-34 16-88 45-170 45s-136-29-170-45v-105h-110v-750h560v750h-110v105z m-60-105h-220v67c27 12 65 23 110 23s83-11 110-23v-67z" horiz-adv-x="1000" />
<glyph glyph-name="glyph-40" unicode="&#xe828;" d="m875 483h-750v-625h750v625z m125 125v0-875h-1000v875h1000z m-187-687h-625v125l187 312 257-312 181 125v-63z m-188 406c0 52 42 94 94 94s94-42 94-94c0-52-42-94-94-94s-94 42-94 94z" horiz-adv-x="1000" />
<glyph glyph-name="left-open-mini" unicode="&#xe829;" d="m252 180q26-26 0-48-26-26-48 0l-192 194q-24 24 0 50l192 194q22 26 48 0 26-22 0-48l-156-172z" horiz-adv-x="265" />
<glyph glyph-name="glyph-42" unicode="&#xe82a;" d="m494 643c-254-3-457-212-454-466 4-254 212-457 466-454s457 212 454 467c-3 254-212 457-466 453z m51-153c47 0 60-27 60-58 0-39-31-75-84-75-44 0-65 23-64 59 0 31 26 74 88 74z m-120-594c-32 0-55 19-33 105l37 151c6 24 7 34 0 34-10 0-51-17-76-34l-16 27c78 65 167 103 206 103 32 0 37-38 21-96l-42-159c-8-29-4-38 3-38 10 0 41 11 72 36l18-24c-76-76-158-105-190-105z" horiz-adv-x="1000" />
<glyph glyph-name="right-open-mini" unicode="&#xe82b;" d="m13 180l158 170-158 172q-26 26 0 48 26 26 48 0l192-194q24-26 0-50l-192-194q-22-26-48 0-26 22 0 48z" horiz-adv-x="265" />
<glyph glyph-name="glyph-44" unicode="&#xe82c;" d="m494 643c-254-3-457-212-454-466 4-254 212-457 466-454 254 4 457 212 454 467-3 254-212 457-466 453z m-1-740h-3c-39 1-67 30-66 69 2 38 30 65 68 65l2 0c40-1 67-29 66-69-1-38-29-65-67-65z m164 327c-9-13-29-29-55-49l-28-20c-15-12-25-23-28-34-3-9-4-11-4-29l0-4h-108l1 9c1 37 2 59 17 77 25 29 78 63 80 65 8 5 14 12 19 19 12 15 17 28 17 40 0 16-5 32-15 45-10 14-27 20-53 20-26 0-43-8-54-24-11-18-16-36-16-54v-5h-111l1 5c3 68 27 117 71 145 29 18 64 27 104 27 54 0 99-13 135-38 36-26 54-65 54-116 0-28-9-55-27-79z" horiz-adv-x="1000" />
<glyph glyph-name="mail-alt" unicode="&#xe82d;" d="m1000 454v-443q0-37-26-63t-63-27h-822q-36 0-63 27t-26 63v443q25-28 56-49 202-137 278-192 32-24 51-37t53-27 61-13h2q28 0 61 13t53 27 51 37q95 68 278 192 32 22 56 49z m0 164q0-44-27-84t-68-69q-210-146-262-181-5-4-23-17t-30-22-29-18-33-15-27-5h-2q-12 0-27 5t-33 15-29 18-30 22-23 17q-51 35-147 101t-114 80q-35 23-65 64t-31 77q0 43 23 72t66 29h822q36 0 62-26t27-63z" horiz-adv-x="1000" />
<glyph glyph-name="glyph-46" unicode="&#xe82e;" d="m1000-257c0 0-2 190-13 209-18 29-58 50-132 81-74 31-98 57-98 113 0 34 23 23 32 84 5 26 25 1 28 59 0 23-10 29-10 29s5 34 7 61c3 33-16 118-119 118s-123-85-120-118c2-27 8-61 8-61s-11-6-11-29c4-59 24-33 28-59 10-61 32-50 32-84 0-38-11-62-41-84 162-81 184-98 184-170v-149h225z m-489 262c-99 41-130 76-130 150 0 45 30 31 43 113 6 34 32 0 37 78 0 31-14 39-14 39s7 46 10 81c4 44-22 157-159 157s-163-113-160-157c3-35 11-81 11-81s-15-8-15-39c5-78 32-44 37-78 14-82 44-68 44-113 0-74-32-109-131-150-30-13-84-33-84-80v-182h695c0 0 0 108 0 137 0 43-85 83-184 125z" horiz-adv-x="1000" />
<glyph glyph-name="glyph-47" unicode="&#xe82f;" d="m619-39c-125 45-164 83-164 164 0 49 38 33 54 122 7 37 41 1 47 85 0 34-18 42-18 42s9 50 13 88c4 48-28 171-201 171s-205-123-201-171c4-38 13-88 13-88s-18-8-18-42c6-84 40-48 47-85 17-89 55-73 55-122 0-81-40-119-165-164-15-5-51-14-81-27v-201h800c0 0 0 74 0 106s-56 77-181 122z m231 272v150h-100v-150h-150v-100h150v-150h100v150h150v100h-150z" horiz-adv-x="1000" />
<glyph glyph-name="glyph-48" unicode="&#xe830;" d="m1000 252c0 196-57 355-128 356 0 0 0 0 1 0h-81c0 0-191-143-465-199-8-44-13-97-13-157s5-114 13-158c274-56 465-199 465-199h81c-1 0-1 0-1 0 71 1 128 160 128 357z m-155-303c-10 0-19 9-25 15-12 14-24 35-34 62-23 60-35 140-35 226 0 85 12 166 35 225 10 27 22 49 34 62 6 6 15 15 25 15 9 0 19-9 24-15 12-13 24-35 34-62 23-59 35-140 35-225 0-86-12-166-35-226-10-27-22-48-34-62-5-6-15-15-24-15z m-599 303c0 50 4 100 11 145-47-6-87-10-137-10-66 0-66 0-66 0l-54-92v-86l54-93c0 0 0 0 66 0 50 0 90-4 137-10-7 46-11 95-11 146z m114-208l-125 24 79-314c5-17 21-25 36-19l116 47c16 6 22 23 14 38l-120 224z m485 91c-4 0-8 4-10 6-4 5-9 13-13 24-9 23-14 54-14 87s5 64 14 87c4 10 9 18 13 24 2 2 6 5 10 5 3 0 7-3 9-5 5-6 9-14 13-24 9-23 14-54 14-87 0-33-5-64-14-87-4-11-8-19-13-24-2-2-6-6-9-6z" horiz-adv-x="1000" />
<glyph glyph-name="glyph-49" unicode="&#xe831;" d="m500 671l-500-313h1000l-500 313z m281-375l32-63v-375h125v375l31 63h-188z m-250 0l32-63v-375h125v375l31 63h-188z m-250 0l32-63v-375h125v375l31 63h-188z m-250 0l32-63v-375h125v375l31 63h-188z m0-500l-31-125h1000l-31 125h-938z m532 687c0-34-28-62-63-62s-62 28-62 62 28 63 62 63c35 0 63-28 63-63z" horiz-adv-x="1000" />
<glyph glyph-name="glyph-50" unicode="&#xe832;" d="m844 671h-750c-52 0-94-42-94-94v-812c0-52 42-94 94-94h750c51 0 94 42 94 94v812c0 52-43 94-94 94z m-31-875h-688v750h688v-750z m-563 437h438v-62h-438z m0-125h438v-62h-438z m0-125h438v-62h-438z m0 375h438v-62h-438z" horiz-adv-x="1000" />
<glyph glyph-name="glyph-51" unicode="&#xe833;" d="m844 671h-750c-52 0-94-42-94-94v-812c0-52 42-94 94-94h750c51 0 94 42 94 94v812c0 52-43 94-94 94z m-31-875h-688v750h688v-750z m-563 312h438v-62h-438z m0-125h438v-62h-438z m63 407c0 51 42 93 93 93s94-42 94-93c0-52-42-94-94-94s-93 42-93 94z m156-94h-125c-52 0-94-28-94-63v-62h313v62c0 35-43 63-94 63z" horiz-adv-x="1000" />
<glyph glyph-name="glyph-52" unicode="&#xe834;" d="m871 487l-117 118c-37 36-109 66-160 66h-438c-51 0-93-42-93-94v-812c0-52 42-94 93-94h688c51 0 94 42 94 94v562c0 52-30 124-67 160z m-246 51c2 0 4-1 7-2 17-7 30-16 33-20l118-117c4-4 12-16 20-34 1-2 1-4 2-7h-180v180z m188-742h-625v750h375v-250h250v-500z" horiz-adv-x="1000" />
<glyph glyph-name="glyph-53" unicode="&#xe835;" d="m871 487l-117 118c-37 36-109 66-160 66h-438c-51 0-93-42-93-94v-812c0-52 42-94 93-94h688c51 0 94 42 94 94v562c0 52-30 124-67 160z m-246 51c2 0 4-1 7-2 17-7 30-16 33-20l118-117c4-4 12-16 20-34 1-2 1-4 2-7h-180v180z m188-742h-625v750h375v-250h250v-500z m-563 375h500v-63h-500z m0-125h500v-63h-500z m0-125h500v-63h-500z" horiz-adv-x="1000" />
<glyph glyph-name="glyph-54" unicode="&#xe836;" d="m882 476l-139 140c-31 30-91 55-134 55h-468c-43 0-78-35-78-78v-844c0-43 35-78 78-78h718c43 0 79 35 79 78v594c0 43-25 103-56 133z m-44-44c3-3 6-7 9-11h-159v160c4-3 8-6 11-10l139-139z m37-683c0-9-7-16-16-16h-718c-9 0-16 7-16 16v844c0 8 7 15 16 15h468c5 0 10 0 16-1v-249h248c1-5 2-11 2-15v-594z" horiz-adv-x="1000" />
<glyph glyph-name="glyph-55" unicode="&#xe837;" d="m813 358v157c0 17-15 31-32 31h-218v62c0 35-29 63-63 63h-125c-34 0-62-28-62-63v-62h-219c-17 0-31-14-31-31v-625c0-18 14-32 31-32h281v-187h438l187 187v500h-187z m-438 250c0 0 0 0 0 0h125c0 0 0 0 0 0v-62h-125v62z m-187-187v62h500v-62h-500z m625-662v99h99l-99-99z m125 162h-188v-188h-312v563h500v-375z" horiz-adv-x="1000" />
<glyph glyph-name="glyph-56" unicode="&#xe838;" d="m500 583c-138 0-250-112-250-250 0-238 250-550 250-550s250 312 250 550c0 138-112 250-250 250z m0-388c-74 0-135 61-135 135s61 135 135 135 135-60 135-135-60-135-135-135z" horiz-adv-x="1000" />
<glyph glyph-name="glyph-57" unicode="&#xe839;" d="m500 671c-276 0-500-224-500-500s224-500 500-500 500 224 500 500-224 500-500 500z m-187-500c0 103 83 187 187 187s188-84 188-187-84-188-188-188-187 84-187 188z m591-168v0l-173 72c12 30 19 62 19 96s-7 66-19 96l173 71c22-51 34-108 34-167s-12-116-34-168v0z m-236 572v0 0l-72-173c-30 12-62 19-96 19s-66-7-96-19l-71 173c51 22 108 33 167 33 59 0 116-11 168-33z m-572-237l173-71c-12-30-19-62-19-96s7-66 19-96l-173-72c-22 52-33 109-33 168s11 116 33 167z m237-571l71 173c30-12 62-19 96-19s66 7 96 19l72-173c-52-22-109-34-168-34-59 0-116 12-167 34z" horiz-adv-x="1000" />
<glyph glyph-name="glyph-58" unicode="&#xe83a;" d="m688 46c-63-63-63-125-125-125s-125 62-188 125-125 125-125 187 63 63 125 125-125 250-187 250-188-187-188-187c0-125 128-379 250-500s375-250 500-250c0 0 188 125 188 187s-188 250-250 188z" horiz-adv-x="1000" />
<glyph glyph-name="glyph-59" unicode="&#xe83b;" d="m938 421c34 0 62 28 62 62v125h-125v63h-812c-35 0-63-28-63-63v-875c0-34 28-62 63-62h812v250h63c34 0 62 28 62 62v125h-125v63h63c34 0 62 28 62 62v125h-125v63h63z m-375 0c68 0 124-56 124-125s-56-125-124-125c-69 0-125 56-125 125s56 125 125 125z m-313-688h-62v875h62v-875z m500 188h-375v62c0 69 56 125 125 125v0h125c69 0 125-56 125-125v-62z" horiz-adv-x="1000" />
<glyph glyph-name="glyph-60" unicode="&#xe83c;" d="m531 671l-93-94 93-94-218-250h-219l172-171-266-353v-38h39l352 265 172-171v218l250 219 93-94 94 94-469 469z m-93-531l-63 62 219 219 62-63-218-218z" horiz-adv-x="1000" />
<glyph glyph-name="glyph-61" unicode="&#xe83d;" d="m500 671c-173 0-312-140-312-313 0-312 312-687 312-687s313 375 313 687c0 173-140 313-313 313z m0-500c-104 0-187 84-187 187s83 188 187 188 188-84 188-188-84-187-188-187z" horiz-adv-x="1000" />
<glyph glyph-name="glyph-62" unicode="&#xe83e;" d="m0 483l313 125v-750l-313-125z m688 0v-750l-313 104v751z m312 125v-750l-250-100v750z" horiz-adv-x="1000" />
<glyph glyph-name="glyph-63" unicode="&#xe83f;" d="m656 483l-312 125-344-125v-750l344 125 312-125 344 125v750l-344-125z m-281 46l250-100v-616l-250 100v616z m-312-89l250 91v-618l-250-90v617z m875-538l-250-91v617l250 91v-617z" horiz-adv-x="1000" />
<glyph glyph-name="glyph-64" unicode="&#xe840;" d="m563 608c241 0 437-195 437-437s-196-438-437-438v94c91 0 178 36 243 101s100 151 100 243c0 92-35 178-100 243s-152 101-243 101c-92 0-179-36-244-101-49-50-82-113-95-181h182l-218-250-219 250h161c30 212 212 375 433 375z m187-375v-125h-250v313h125v-188z" horiz-adv-x="1000" />
<glyph glyph-name="glyph-65" unicode="&#xe841;" d="m643-61l-205 206v276h125v-224l169-169z m-143 732c-276 0-500-224-500-500s224-500 500-500 500 224 500 500-224 500-500 500z m0-875c-207 0-375 168-375 375s168 375 375 375c207 0 375-168 375-375s-168-375-375-375z" horiz-adv-x="1000" />
<glyph glyph-name="glyph-66" unicode="&#xe842;" d="m500 671c-276 0-500-224-500-500s224-500 500-500 500 224 500 500-224 500-500 500z m143-732l-205 206v276h125v-224l169-169-89-89z" horiz-adv-x="1000" />
<glyph glyph-name="glyph-67" unicode="&#xe843;" d="m563 134l106-106-88-89-143 143v214h125z m250 474c103 0 187-84 187-187 0-64-31-120-80-154-45 121-141 216-261 262 34 48 90 79 154 79z m-472-79c-120-46-216-141-261-262-48 34-80 90-80 154 0 103 84 187 188 187 63 0 119-31 153-79z m159-46c-207 0-375-168-375-375 0-90 32-173 85-238l-22-199h62l63 112c55-31 119-50 187-50 68 0 132 19 188 50l0 0 62-112h63l-23 199c53 65 85 148 85 238 0 207-168 375-375 375z m0-625c-138 0-250 112-250 250s112 250 250 250 250-112 250-250-112-250-250-250z" horiz-adv-x="1000" />
<glyph glyph-name="glyph-68" unicode="&#xe844;" d="m500 546c-242 0-437-196-437-438s195-437 437-437 438 196 438 437-196 438-438 438z m0-789c-194 0-352 157-352 351 0 195 158 352 352 352 194 0 352-157 352-352 0-194-158-351-352-351z m413 633c16 28 25 60 25 93 0 104-84 188-188 188-60 0-114-29-148-73 128-27 239-103 311-208z m-515 208c-34 44-88 73-148 73-104 0-187-84-187-188 0-33 9-65 24-93 72 105 183 181 311 208z m40-240h62v-312h-62v312z m62-250h188v-62h-188v62z" horiz-adv-x="1000" />
<glyph glyph-name="glyph-69" unicode="&#xe845;" d="m924 449c-570-228-339 387-781 63l-93-33 183-721h101l-89 353c394 331 234-360 701 318 11 16-3 28-22 20z" horiz-adv-x="1000" />
<glyph glyph-name="glyph-70" unicode="&#xe846;" d="m500 482v64h125v62c0 35-28 63-62 63h-188c-34 0-62-28-62-63v-62h125v-64c-210-16-375-191-375-405 0-224 181-406 406-406s406 182 406 406c0 214-165 389-375 405z m190-626c-59-59-138-91-221-91s-162 32-221 91c-59 59-92 138-92 221s33 162 92 221c57 57 131 89 211 91l-21-306c-2-26 12-37 31-37s33 11 31 37l-21 306c79-2 154-34 211-91 59-59 91-137 91-221s-32-162-91-221z" horiz-adv-x="1000" />
<glyph glyph-name="glyph-71" unicode="&#xe847;" d="m313 296h125v-125h-125z m187 0h125v-125h-125z m188 0h125v-125h-125z m-563-375h125v-125h-125z m188 0h125v-125h-125z m187 0h125v-125h-125z m-187 187h125v-125h-125z m187 0h125v-125h-125z m188 0h125v-125h-125z m-563 0h125v-125h-125z m688 563v-63h-125v63h-438v-63h-125v63h-125v-1000h938v1000h-125z m62-938h-812v688h812v-688z" horiz-adv-x="1000" />
<glyph glyph-name="glyph-72" unicode="&#xe848;" d="m875 546h-94v-31c0-35-28-63-62-63s-63 28-63 63v31h-312v-31c0-35-28-63-63-63s-62 28-62 63v31h-94c-34 0-62-28-62-63v-687c0-35 28-63 62-63h750c34 0 63 28 63 63v687c0 35-29 63-63 63z m0-750c0 0 0 0 0 0h-750c0 0 0 0 0 0v562h750v-562z m-594 687c18 0 32 14 32 32v125c0 17-14 31-32 31s-31-14-31-31v-125c0-18 14-32 31-32z m438 0c17 0 31 14 31 32v125c0 17-14 31-31 31s-31-14-31-31v-125c0-18 14-32 31-32z m-156-187h-313v-63h250v-125h-250v-62h250v-125h-250v-63h313z m125-438h62v438h-125v-63h63z m164-148h-704c-34 0-62 20-62 55v-32c0-34 28-62 62-62h704c34 0 62 28 62 62v32c0-35-28-55-62-55z" horiz-adv-x="1000" />
<glyph glyph-name="glyph-73" unicode="&#xe849;" d="m688 671h-375l-188-125v-250h750v250l-187 125z m-63-313h-62v42c0 12-10 21-21 21h-84c-11 0-20-9-20-21v-42h-63v105c0 11 9 20 21 20h208c12 0 21-9 21-20v-105z m-500-375h750v250h-750v-250z m250 167c0 12 9 21 21 21h208c12 0 21-9 21-21v-104h-62v42c0 11-10 20-21 20h-84c-11 0-20-9-20-20v-42h-63v104z m-250-479h750v250h-750v-250z m250 166c0 12 9 21 21 21h208c12 0 21-9 21-21v-104h-62v42c0 11-10 21-21 21h-84c-11 0-20-10-20-21v-42h-63v104z" horiz-adv-x="1000" />
<glyph glyph-name="glyph-74" unicode="&#xe84a;" d="m688 483h-375l-313-375v-250c0-34 28-62 63-62h875c34 0 62 28 62 62v250l-312 375z m62-375l-125-125h-250l-125 125h-169l261 313h316l261-313h-169z" horiz-adv-x="1000" />
<glyph glyph-name="glyph-75" unicode="&#xe84b;" d="m500 108l250 250h-187v250h-125v-250h-188z m227 103l-70-70 254-95-411-154-411 154 254 95-70 70-273-103v-250l500-187 500 187v250z" horiz-adv-x="1000" />
<glyph glyph-name="glyph-76" unicode="&#xe84c;" d="m438 108h125v250h187l-250 250-250-250h188z m187 141v-96l286-107-411-154-411 154 286 107v96l-375-141v-250l500-187 500 187v250z" horiz-adv-x="1000" />
<glyph glyph-name="glyph-77" unicode="&#xe84d;" d="m839 183c0 53 33 94 81 123-9 29-20 57-34 83-55-14-99 7-136 44-37 37-48 81-34 136-27 14-55 26-84 34-28-48-80-80-132-80s-104 32-132 80c-29-8-57-20-84-34 15-55 3-99-34-136-37-37-81-58-135-44-15-26-26-54-35-83 49-29 81-70 81-123 0-52-32-103-81-132 9-29 20-57 35-83 54 14 98 2 135-35 37-37 49-81 34-135 27-14 55-26 84-35 28 49 80 81 132 81s104-32 132-81c30 9 57 21 84 35-14 54-3 98 34 135 37 37 81 59 136 45 14 26 25 54 34 83-48 29-81 70-81 122z m-339-182c-101 0-183 82-183 182s82 183 183 183c101 0 183-82 183-183s-82-182-183-182z" horiz-adv-x="1000" />
<glyph glyph-name="glyph-78" unicode="&#xe84e;" d="m744-329c111 201 130 508-306 498v-248l-375 375 375 375v-243c522 14 580-461 306-757z" horiz-adv-x="1000" />
<glyph glyph-name="glyph-79" unicode="&#xe84f;" d="m563 428v243l375-375-375-375v248c-437 10-418-297-307-498-274 296-216 771 307 757z" horiz-adv-x="1000" />
<glyph glyph-name="glyph-80" unicode="&#xe850;" d="m256 671c-111-201-130-508 307-498v248l375-375-375-375v242c-523-13-581 462-307 758z" horiz-adv-x="1000" />
<glyph glyph-name="glyph-81" unicode="&#xe851;" d="m438-87v-242l-375 375 375 375v-248c436-10 417 297 306 498 274-296 216-771-306-758z" horiz-adv-x="1000" />
<glyph glyph-name="glyph-82" unicode="&#xe852;" d="m608-15c-21 3-22 62-22 62s64 63 77 148c38 0 61 89 23 121 2 33 48 261-186 261s-188-228-186-261c-38-32-15-121 23-121 13-85 77-148 77-148s-1-59-22-62c-70-12-329-126-329-252h875c0 126-260 240-330 252z" horiz-adv-x="1000" />
<glyph glyph-name="glyph-83" unicode="&#xe853;" d="m718-116c-19 3-19 54-19 54s54 53 66 125c32 0 52 76 20 103 1 28 41 222-160 222-201 0-161-194-160-222-32-27-12-103 20-103 12-72 66-125 66-125s0-51-19-54c-59-9-282-106-282-213h750c0 107-223 204-282 213z m-382-17c43 27 95 51 138 66-15 22-32 52-43 87-15 12-27 30-35 52-8 21-11 45-9 68 2 16 7 31 14 44-5 45-8 134 51 200 23 25 51 43 86 54-7 63-39 137-163 137-201 0-161-193-160-221-32-27-12-104 20-104 12-71 66-125 66-125s0-50-19-53c-59-10-282-107-282-214h322c5 3 9 6 14 9z" horiz-adv-x="1000" />
<glyph glyph-name="glyph-84" unicode="&#xe854;" d="m250 358c0 138 112 250 250 250s250-112 250-250c0-138-112-250-250-250s-250 112-250 250z m500-312h-500c-138 0-250-112-250-250v-63h1000v63c0 138-112 250-250 250z" horiz-adv-x="1000" />
<glyph glyph-name="glyph-85" unicode="&#xe855;" d="m313 483c0 104 83 188 187 188s188-84 188-188c0-103-84-187-188-187s-187 84-187 187z m437-250h-34l-195-394 73 363-94 94-94-94 73-363-194 394h-35c-125 0-125-84-125-187v-313h750v313c0 103 0 187-125 187z" horiz-adv-x="1000" />
<glyph glyph-name="glyph-86" unicode="&#xe856;" d="m613 55c0 0 353 255 314 546-1 7-3 11-6 14-2 2-6 4-13 5-285 40-533-321-533-321-216 26-201-17-299-254-19-45 12-60 45-48 34 13 108 41 108 41l129-133c0 0-27-75-40-109-12-35 3-66 47-47 231 101 274 85 248 306z m51 296c-30 30-30 80 0 111 30 30 78 30 108 0 30-31 30-81 0-111-30-31-78-31-108 0z" horiz-adv-x="1000" />
<glyph glyph-name="glyph-87" unicode="&#xe857;" d="m359-275c40-26 85-43 141-42 56-1 101 16 141 42v103h-282v-103z m276 163c0 218 231 288 214 505-11 137-104 290-349 290s-338-153-349-290c-17-217 214-287 214-505h270z m-378 497c10 130 99 196 243 196s233-66 243-196c6-71-35-119-90-196-41-58-89-125-112-213h-82c-23 88-71 155-112 213-55 77-96 125-90 196z" horiz-adv-x="1000" />
<glyph glyph-name="glyph-88" unicode="&#xe858;" d="m1000 296h-375l140 140c-71 71-165 110-265 110s-194-39-265-110c-71-71-110-165-110-265s39-195 110-265c71-71 165-110 265-110s194 39 265 110c6 6 12 12 17 18l94-82c-91-105-226-171-376-171-276 0-500 224-500 500s224 500 500 500c138 0 263-56 354-147l146 147v-375z" horiz-adv-x="1000" />
<glyph glyph-name="glyph-89" unicode="&#xe859;" d="m63 671h375v-63h-375z m500 0h375v-63h-375z m367-313h-55v250h-250v-250h-250v250h-250v-250h-55c-38 0-70-31-70-70v-547c0-39 32-70 70-70h297c39 0 71 31 71 70v367h125v-367c0-39 31-70 70-70h297c38 0 70 31 70 70v547c0 39-32 70-70 70z m-590-625h-242c-20 0-35 14-35 32s15 31 35 31h242c19 0 35-14 35-31s-16-32-35-32z m191 438h-62c-17 0-31 14-31 31s14 31 31 31h62c17 0 32-14 32-31s-15-31-32-31z m371-438h-242c-19 0-35 14-35 32s16 31 35 31h242c20 0 36-14 36-31s-16-32-36-32z" horiz-adv-x="1000" />
<glyph glyph-name="glyph-90" unicode="&#xe85a;" d="m1000 671v-375l-135 135-207-207-105 105 207 207-135 135z m-760-135l207-207-105-105-207 207-135-135v375h375z m625-625l135 135v-375h-375l135 135-207 207 105 105z m-418 102l-207-207 135-135h-375v375l135-135 207 207z" horiz-adv-x="1000" />
<glyph glyph-name="glyph-91" unicode="&#xe85b;" d="m63 108h375v-375l-135 135-198-197-105 105 198 197z m740-135l197-197-105-105-197 197-135-135v375h375z m135 260h-375v375l135-135 197 198 105-105-197-198z m-635 240l135 135v-375h-375l135 135-198 198 105 105z" horiz-adv-x="1000" />
<glyph glyph-name="glyph-92" unicode="&#xe85c;" d="m688 671c-173 0-313-140-313-313 0-19 2-38 5-57l-380-380v-188c0-34 28-62 63-62h62v62h125v125h125v125h125l81 81c33-12 69-18 107-18 172 0 312 140 312 312s-140 313-312 313z m93-313c-52 0-94 42-94 94s42 94 94 94 94-42 94-94-42-94-94-94z" horiz-adv-x="1000" />
<glyph glyph-name="glyph-93" unicode="&#xe85d;" d="m813 233h-63v188c0 138-112 250-250 250s-250-112-250-250v-188h-62c-35 0-63-28-63-62v-438c0-34 28-62 63-62h625c34 0 62 28 62 62v438c0 34-28 62-62 62z m-313-375c-34 0-62 28-62 63s28 62 62 62 63-28 63-62-28-63-63-63z m125 375h-250v188c0 69 56 125 125 125s125-56 125-125v-188z" horiz-adv-x="1000" />
<glyph glyph-name="glyph-94" unicode="&#xe85e;" d="m578 233h-15v188c0 103-85 187-188 187h-125c-103 0-187-84-187-187v-188h-16c-26 0-47-21-47-46v-469c0-26 21-47 47-47h531c26 0 47 21 47 47v469c0 25-21 46-47 46z m-203-437h-125l27 136c-16 11-27 30-27 51 0 35 28 63 63 63s62-28 62-63c0-21-11-40-27-51l27-136z m63 437h-250v188c0 34 28 62 62 62h125c35 0 63-28 63-62v-188z" horiz-adv-x="1000" />
<glyph glyph-name="glyph-95" unicode="&#xe85f;" d="m750 608h-125c-103 0-187-84-187-187v-188h-391c-26 0-47-21-47-46v-469c0-26 21-47 47-47h531c26 0 47 21 47 47v469c0 25-21 46-47 46h-15v188c0 34 28 62 62 62h125c35 0 63-28 63-62v-188h125v188c0 103-85 187-188 187z m-375-812h-125l27 136c-16 11-27 30-27 51 0 35 28 63 63 63s62-28 62-63c0-21-11-40-27-51l27-136z" horiz-adv-x="1000" />
<glyph glyph-name="glyph-96" unicode="&#xe860;" d="m979-128l-449 386c21 39 33 84 33 132 0 155-126 281-282 281-28 0-56-4-81-12l162-163c24-24 24-64 0-88l-99-99c-24-24-64-24-88 0l-163 162c-8-26-12-53-12-81 0-156 126-282 281-282 48 0 93 12 132 33l386-450c22-26 60-27 85-3l99 99c24 25 23 63-4 85z" horiz-adv-x="1000" />
<glyph glyph-name="glyph-97" unicode="&#xe861;" d="m438 546v16c0 25-22 46-47 46h-157c-25 0-46-21-46-46v-16h-188v-125h188v-16c0-26 21-47 46-47h157c25 0 47 21 47 47v16h562v125h-562z m-188-125v125h125v-125h-125z m563-172c0 26-22 47-47 47h-157c-25 0-46-21-46-47v-16h-563v-125h563v-15c0-26 21-47 46-47h157c25 0 47 21 47 47v15h187v125h-187v16z m-188-141v125h125v-125h-125z m-187-172c0 26-22 47-47 47h-157c-25 0-46-21-46-47v-15h-188v-125h188v-16c0-26 21-47 46-47h157c25 0 47 21 47 47v16h562v125h-562v15z m-188-140v125h125v-125h-125z" horiz-adv-x="1000" />
<glyph glyph-name="glyph-98" unicode="&#xe862;" d="m912 75c-53 91-21 207 70 260l-98 170c-28-16-61-26-95-26-105 0-191 86-191 192h-196c0-33-8-66-25-96-53-91-170-122-261-69l-98-170c28-16 52-40 70-70 52-91 21-207-70-260l98-170c28 16 61 25 95 25 105 0 190-85 190-190h197c0 32 8 65 25 95 53 90 169 121 260 69l99 170c-28 16-53 40-70 70z m-412-107c-112 0-202 91-202 203 0 112 90 202 202 202 112 0 203-90 203-202 0-112-91-203-203-203z" horiz-adv-x="1000" />
<glyph glyph-name="glyph-99" unicode="&#xe863;" d="m250 483l-125 125h-62v-62l125-125z m63 188h62v-125h-62z m250-313h125v-62h-125z m62 188v62h-62l-125-125 62-62z m-625-188h125v-62h-125z m313-250h62v-125h-62z m-250 0v-62h62l125 125-62 62z m923-299l-621 622c-18 18-48 18-66 0l-59-59c-18-18-18-48 0-66l621-622c19-18 48-18 67 0l58 59c19 18 19 48 0 66z m-517 331l-188 187 63 63 187-188-62-62z" horiz-adv-x="1000" />
<glyph glyph-name="glyph-100" unicode="&#xe864;" d="m875 421h-187v125c0 34-29 62-63 62h-250c-34 0-62-28-62-62v-125h-188c-69 0-125-56-125-125v-500c0-69 56-125 125-125h750c69 0 125 56 125 125v500c0 69-56 125-125 125z m-500 125h250v-125h-250v125z m375-563h-187v-187h-125v187h-188v125h188v188h125v-188h187v-125z" horiz-adv-x="1000" />
<glyph glyph-name="glyph-101" unicode="&#xe865;" d="m1000 108v63h-189c-5 71-31 136-70 188h158l69 273-61 15-56-226h-171c-1 1-2 1-3 2 7 19 11 40 11 61 0 103-84 187-188 187s-187-84-187-187c0-21 3-42 10-61-1-1-2-1-3-2h-171l-56 226-61-15 69-273h158c-39-52-64-117-70-188h-189v-63h189c4-44 15-86 33-124h-121l-69-274 61-15 56 226h110c57-76 144-125 241-125s184 49 241 125h110l56-226 61 15-69 274h-121c18 38 30 80 33 124h189z" horiz-adv-x="1000" />
<glyph glyph-name="glyph-102" unicode="&#xe866;" d="m438 108v438c-242 0-438-196-438-438s196-437 438-437 437 196 437 437c0 71-17 137-46 196l-391-196z m453 321c-71 143-220 242-391 242v-438l391 196z" horiz-adv-x="1000" />
<glyph glyph-name="glyph-103" unicode="&#xe867;" d="m125-204h875v-125h-1000v1000h125z m156 62c-51 0-93 42-93 94s42 94 93 94c3 0 6 0 8 0l101 167c-9 15-15 33-15 52 0 51 42 93 94 93s94-42 94-93c0-19-6-37-16-52l101-167c3 0 6 0 8 0 2 0 4 0 7 0l166 291c-10 15-16 33-16 53 0 51 42 93 93 93s94-42 94-93c0-52-42-94-94-94-2 0-4 0-6 0l-166-291c10-15 16-33 16-53 0-52-42-94-94-94s-93 42-93 94c0 19 5 36 15 51l-101 168c-3 0-5 0-8 0s-6 0-8 0l-101-168c9-15 15-32 15-51 0-52-42-94-94-94z" horiz-adv-x="1000" />
<glyph glyph-name="glyph-104" unicode="&#xe868;" d="m0-142h1000v-125h-1000z m125 250h125v-187h-125z m188 250h125v-437h-125z m187-187h125v-250h-125z m188 375h125v-625h-125z" horiz-adv-x="1000" />
<glyph glyph-name="glyph-105" unicode="&#xe869;" d="m753 358c18 13 35 27 51 43 32 32 54 72 61 113 8 44-3 85-31 112-22 22-51 33-85 33-49 0-100-23-140-64-65-65-103-154-123-218-15 64-45 151-104 209-31 32-71 48-109 48-31 0-60-11-82-33-49-49-43-134 14-191 21-21 44-38 69-52h-211v-250h62v-437h750v437h63v250h-185z m-94 188c27 27 60 43 90 43 10 0 25-2 36-13 25-25 11-84-31-126-43-43-101-72-151-92h-49c18 57 51 134 105 188z m-430-32c-1 9-1 25 11 37 10 10 24 12 33 12v0c21 0 42-9 59-26 34-33 61-86 79-153 1-1 1-3 2-5-2 1-4 1-6 2-66 18-119 45-152 78-15 16-25 36-26 55z m209-781h-250v407h250v-407z m0 438h-313v125h313v-125z m375-438h-250v407h250v-407z m62 438h-312v125h312v-125z" horiz-adv-x="1000" />
<glyph glyph-name="glyph-106" unicode="&#xe86a;" d="m813 483v125h-625v-125h-188v-125c0-103 84-187 188-187 19 0 38 3 56 8 45-64 114-111 194-127v-194h-63c-69 0-125-56-125-125h500c0 69-56 125-125 125h-62v194c79 16 148 63 193 127 18-5 37-8 57-8 103 0 187 84 187 187v125h-187z m-625-238c-63 0-114 51-114 113v63h114v-63c0-39 7-76 20-111-7-1-13-2-20-2z m738 113c0-62-51-113-113-113-7 0-14 1-21 2 13 35 21 72 21 111v63h113v-63z" horiz-adv-x="1000" />
<glyph glyph-name="glyph-107" unicode="&#xe86b;" d="m813 358h-63v94c0 86-168 156-375 156s-375-70-375-156v-562c0-87 168-157 375-157s375 70 375 157v93h63c103 0 187 85 187 188s-84 187-187 187z m-641 128c57 18 129 29 203 29s147-11 203-29c36-12 58-25 70-34-12-9-34-22-70-33-56-19-129-29-203-29s-146 10-203 29c-36 11-58 24-70 33 12 9 34 22 70 34z m711-370c-8-9-27-23-55-23h-78v156h78c28 0 47-14 55-23s23-27 23-55-14-47-23-55z" horiz-adv-x="1000" />
<glyph glyph-name="glyph-108" unicode="&#xe86c;" d="m688 608l-313-312h-187l-188-250c0 0 199 55 315 29l-315-404 412 320c58-131-37-320-37-320l250 187v188l313 312 62 313-312-63z" horiz-adv-x="1000" />
<glyph glyph-name="glyph-109" unicode="&#xe86d;" d="m934-115l-309 515v208h31c17 0 32 14 32 32s-15 31-32 31h-312c-17 0-31-14-31-31s14-32 31-32h31v-208l-309-515c-71-118-16-214 122-214h625c137 0 192 96 121 214z m-699 161l203 337v225h125v-225l202-337h-530z" horiz-adv-x="1000" />
<glyph glyph-name="glyph-110" unicode="&#xe86e;" d="m500 671c-276 0-500-224-500-500s224-500 500-500 500 224 500 500-224 500-500 500z m0-875c-207 0-375 168-375 375s168 375 375 375c207 0 375-168 375-375s-168-375-375-375z m-62 625c0 34 28 62 62 62s63-28 63-62c0-35-28-63-63-63s-62 28-62 63z m187-63c0 35 28 63 63 63s62-28 62-63c0-34-28-62-62-62s-63 28-63 62z m-375 0c0 35 28 63 63 63s62-28 62-63c0-34-28-62-62-62s-63 28-63 62z m188-375v-62h125v62l-63 313z" horiz-adv-x="1000" />
<glyph glyph-name="glyph-111" unicode="&#xe86f;" d="m938 421h-250v62c0 35-29 63-63 63h-250c-34 0-62-28-62-63v-62h-250c-35 0-63-28-63-63v-562c0-35 28-63 63-63h875c34 0 62 28 62 63v562c0 35-28 63-62 63z m-563 62c0 0 0 0 0 0h250c0 0 0 0 0 0v-62h-250v62z m563-312h-125v-94c0-17-15-31-32-31h-62c-17 0-31 14-31 31v94h-375v-94c0-17-15-31-32-31h-62c-17 0-31 14-31 31v94h-125v62h875v-62z" horiz-adv-x="1000" />
<glyph glyph-name="glyph-112" unicode="&#xe870;" d="m781 546h-562c-52 0-94-42-94-94v-31h750v31c0 52-42 94-94 94z m-163 62l13-98h-262l14 98h235z m7 63h-250c-26 0-50-21-53-47l-19-130c-3-26 15-47 41-47h312c26 0 44 21 41 47l-19 130c-3 26-27 47-53 47v0z m172-313h-594c-34 0-60-28-57-62l52-563c3-34 33-62 68-62h468c35 0 65 28 69 62l51 563c3 34-23 62-57 62z m-422-562h-94l-31 437h125v-437z m188 0h-125v437h125v-437z m156 0h-94v437h125l-31-437z" horiz-adv-x="1000" />
<glyph glyph-name="glyph-113" unicode="&#xe871;" d="m938 671l-438-125-437 125c0 0-5-51 0-125l437-137 438 137c4 74 0 125 0 125z m-867-191c23-244 110-656 429-809 319 153 406 565 430 809l-430-161-429 161z" horiz-adv-x="1000" />
<glyph glyph-name="glyph-114" unicode="&#xe872;" d="m625 528v-133c35-15 68-38 96-66 59-59 92-137 92-221s-33-162-92-221c-59-59-137-91-221-91s-162 32-221 91c-59 59-91 138-91 221s32 162 91 221c28 28 61 51 96 66v133c-181-54-312-221-312-420 0-241 195-437 437-437 242 0 438 196 438 437 0 199-132 366-313 420z m-187 143h125v-500h-125z" horiz-adv-x="1000" />
<glyph glyph-name="glyph-115" unicode="&#xe873;" d="m1000 395l-88 88-175-174-99 99 175 175-89 88-174-175-112 112-85-84 500-500 85 84-113 112z m-732-456c162-162 377-35 507 74l-433 433c-109-131-236-345-74-507z m-80 44l125-125-188-187-125 125z" horiz-adv-x="1000" />
<glyph glyph-name="glyph-116" unicode="&#xe874;" d="m438-105l-201 232 57 57 144-112 268 237 57-57z m374 651c0 0 0 0 1 0v-750c-1 0-1 0-1 0h-624c0 0 0 0 0 0v750c0 0 0 0 0 0h-125v-750c0-69 56-125 125-125h625c68 0 125 56 125 125v750h-126z m-187 0v62c0 35-28 63-62 63h-125c-35 0-63-28-63-63v-62h-125v-125h500v125h-125z m-62 0h-125v62h125v-62z" horiz-adv-x="1000" />
<glyph glyph-name="glyph-117" unicode="&#xe875;" d="m1000 29c0 80-55 147-130 165-3 126-106 227-232 227-74 0-140-35-183-89-23 31-61 51-103 51-72 0-130-58-130-131 0-6 0-12 1-18-11 2-22 3-34 3-104 0-189-85-189-189 0-105 85-190 189-190l641 0c94 0 170 77 170 171z" horiz-adv-x="1000" />
<glyph glyph-name="glyph-118" unicode="&#xe876;" d="m870 319c-3 126-106 227-232 227-74 0-140-35-183-89-23 31-61 51-103 51-72 0-130-58-130-131 0-6 0-12 1-18-11 2-22 3-34 3-104 0-189-85-189-189 0-105 85-190 189-190h98l213-213 213 213 117 0c94 0 170 77 170 171 0 80-55 147-130 165z m-370-461l-187 188h125v187h125v-187h125l-188-188z" horiz-adv-x="1000" />
<glyph glyph-name="glyph-119" unicode="&#xe877;" d="m871 293c3 11 4 23 4 34 0 86-70 156-156 156-14 0-28-1-40-5-25 76-95 130-179 130-85 0-157-57-180-135-22 7-46 10-70 10-138 0-250-112-250-250 0-138 112-250 250-250h125v-187h250v187h219c86 0 156 70 156 157 0 77-55 140-129 153z m-308-247v-188h-125v188h-157l219 219 219-219h-156z" horiz-adv-x="1000" />
<glyph glyph-name="glyph-120" unicode="&#xe878;" d="m875 171h-156l-219-219-219 219h-156l-125-250v-63h1000v63l-125 250z m-875-375h1000v-63h-1000v63z m563 562v250h-125v-250h-219l281-281 281 281h-218z" horiz-adv-x="1000" />
<glyph glyph-name="glyph-121" unicode="&#xe879;" d="m0-204h1000v-63h-1000z m1000 125v-63h-1000v63l125 250h250v-125h250v125h250z m-781 437l281 282 281-282h-218v-250h-125v250z" horiz-adv-x="1000" />
<glyph glyph-name="glyph-122" unicode="&#xe87a;" d="m500 483c-218 0-407-127-500-312 93-186 282-313 500-313 218 0 407 127 500 313-93 185-282 312-500 312z m247-165c58-38 108-88 146-147-38-59-88-109-146-147-74-47-159-72-247-72-87 0-173 25-246 72-59 38-109 88-146 147 37 59 87 109 146 147 3 2 7 4 11 7-10-27-15-56-15-86 0-138 112-250 250-250s250 112 250 250c0 30-5 59-15 86 4-3 8-5 12-7z m-247-48c0-51-42-93-94-93s-93 42-93 93 42 94 93 94 94-42 94-94z" horiz-adv-x="1000" />
<glyph glyph-name="glyph-123" unicode="&#xe87b;" d="m1000 283l-345 50-155 313-154-313-346-50 250-244-59-344 309 163 309-163-59 344 250 244z m-500-348l-1-1 1 558 109-221 244-36-176-172 41-243-218 115z" horiz-adv-x="1000" />
<glyph glyph-name="glyph-124" unicode="&#xe87c;" d="m1000 283l-345 50-155 313-154-313-346-50 250-244-59-344 309 163 309-163-59 344 250 244z" horiz-adv-x="1000" />
<glyph glyph-name="glyph-125" unicode="&#xe87d;" d="m906 108c72 0 32-187-31-187 31 0 0-156-62-156 0-63-63-94-125-94-264 0-172 66-438 94v500c235 70 469 247 469 406 52 0 187-63 0-375 0 0 156 0 187 0 94 0 63-188 0-188z m-718 157v-500h62v-32h-125c-34 0-62 42-62 94v375c0 52 28 94 62 94h125v-31h-62z" horiz-adv-x="1000" />
<glyph glyph-name="glyph-126" unicode="&#xe87e;" d="m94 233c-71 0-31 188 31 188-31 0 0 156 63 156 0 63 62 94 125 94 264 0 171-66 437-94v-500c-235-70-469-247-469-406-51 0-187 62 0 375 0 0-156 0-187 0-94 0-63 187 0 187z m719-156v500h-63v31h125c34 0 63-42 63-93v-375c0-52-29-94-63-94h-125v31h63z" horiz-adv-x="1000" />
<glyph glyph-name="glyph-127" unicode="&#xe87f;" d="m500 516l-337-720h674l-337 720z m0 155v0c22 0 43-15 60-44l426-851c33-58 5-105-61-105h-849c-67 0-95 47-62 105l427 851c16 29 37 44 59 44z m-62-750c0 34 28 62 62 62s63-28 63-62c0-35-28-63-63-63s-62 28-62 63z m62 375c35 0 63-28 63-63l-20-187h-86l-19 187c0 35 28 63 62 63z" horiz-adv-x="1000" />
<glyph glyph-name="glyph-128" unicode="&#xe880;" d="m500 577c-108 0-210-42-287-119s-119-179-119-287c0-109 42-211 119-287s179-119 287-119c109 0 211 42 287 119s119 178 119 287c0 108-42 210-119 287s-178 119-287 119z m0 94v0c276 0 500-224 500-500s-224-500-500-500c-276 0-500 224-500 500s224 500 500 500z m-62-688h125v-125h-125z m0 500h125v-375h-125z" horiz-adv-x="1000" />
<glyph glyph-name="glyph-129" unicode="&#xe881;" d="m500 671c-276 0-500-224-500-500s224-500 500-500 500 224 500 500-224 500-500 500z m0-906c-224 0-406 181-406 406s182 406 406 406 406-182 406-406-182-406-406-406z m-62 656h125v-125h-125z m187-500h-250v62h63v188h-63v62h188v-250h62z" horiz-adv-x="1000" />
<glyph glyph-name="glyph-130" unicode="&#xe882;" d="m500 671c-276 0-500-224-500-500s224-500 500-500 500 224 500 500-224 500-500 500z m-62-188h125v-125h-125v125z m187-625h-250v63h63v250h-63v62h188v-312h62v-63z" horiz-adv-x="1000" />
<glyph glyph-name="glyph-131" unicode="&#xe883;" d="m0 171c0-276 224-500 500-500 276 0 500 224 500 500s-224 500-500 500c-276 0-500-224-500-500z m875 0c0-72-20-138-55-195l-515 515c57 35 124 55 195 55 207 0 375-168 375-375z m-750 0c0 71 20 138 55 195l515-515c-57-35-123-55-195-55-207 0-375 168-375 375z" horiz-adv-x="1000" />
<glyph glyph-name="glyph-132" unicode="&#xe884;" d="m500 671c-276 0-500-224-500-500s224-500 500-500 500 224 500 500-224 500-500 500z m250-339l-162-161 162-162v-88h-88l-162 161-162-161h-88v88l162 162-162 161v89h88l162-162 162 162h88v-89z" horiz-adv-x="1000" />
<glyph glyph-name="glyph-133" unicode="&#xe885;" d="m500 671c-276 0-500-224-500-500s224-500 500-500 500 224 500 500-224 500-500 500z m-94-813l-207 270 92 96 115-147 362 295 45-45-407-469z" horiz-adv-x="1000" />
<glyph glyph-name="glyph-134" unicode="&#xe886;" d="m1000-48l-281 719h-438l-281-281v-438l281-281h438l281 281v438l-281 281z m-437-94h-125v125h125v-125z m0 250h-125v375h125v-375z" horiz-adv-x="1000" />
<glyph glyph-name="glyph-135" unicode="&#xe887;" d="m393 528l-312-313c-25-24-25-64 0-88l312-313c25-24 64-24 89 0 24 24 24 64 0 88l-206 206h599c35 0 63 28 63 63 0 34-28 62-63 62h-599l206 206c12 12 18 28 18 44s-6 32-18 45c-25 24-64 24-89 0z" horiz-adv-x="1000" />
<glyph glyph-name="glyph-136" unicode="&#xe888;" d="m1000 171c0-276-224-500-500-500s-500 224-500 500 224 500 500 500 500-224 500-500z m-906 0c0-225 182-406 406-406s406 181 406 406-182 406-406 406-406-182-406-406z m450 294l250-250c25-24 25-64 0-88s-64-25-88 0l-143 143v-349c0-35-28-63-63-63s-62 28-62 63v349l-144-143c-24-25-64-25-88 0-12 12-18 28-18 44s6 32 18 44l250 250c24 24 64 24 88 0z" horiz-adv-x="1000" />
<glyph glyph-name="glyph-137" unicode="&#xe889;" d="m388-225l-388 382 192 190 196-193 420 413 192-190-612-602z m-283 382l283-278 507 498-87 86-420-413-196 193-87-86z" horiz-adv-x="1000" />
<glyph glyph-name="glyph-138" unicode="&#xe88a;" d="m500 671c-276 0-500-224-500-500s224-500 500-500 500 224 500 500-224 500-500 500z m0-906c-224 0-406 181-406 406s182 406 406 406 406-182 406-406-182-406-406-406z m294 450l-250 250c-24 24-64 24-88 0s-25-64 0-88l143-144h-349c-34 0-62-28-62-62s28-63 62-63h349l-143-143c-25-24-25-64 0-88 12-13 28-19 44-19s32 6 44 19l250 250c25 24 25 64 0 88z" horiz-adv-x="1000" />
<glyph glyph-name="glyph-139" unicode="&#xe88b;" d="m1000 171c0 276-224 500-500 500s-500-224-500-500 224-500 500-500 500 224 500 500z m-906 0c0 224 182 406 406 406s406-182 406-406-182-406-406-406-406 181-406 406z m450-294l250 250c25 24 25 64 0 88s-64 24-88 0l-143-143v349c0 34-28 62-63 62s-62-28-62-62v-349l-144 143c-24 24-64 24-88 0-12-12-18-28-18-44s6-32 18-44l250-250c24-25 64-25 88 0z" horiz-adv-x="1000" />
<glyph glyph-name="glyph-140" unicode="&#xe88c;" d="m500 671c276 0 500-224 500-500s-224-500-500-500-500 224-500 500 224 500 500 500z m0-906c224 0 406 181 406 406s-182 406-406 406-406-182-406-406 182-406 406-406z m-294 450l250 250c24 24 64 24 88 0s25-64 0-88l-143-144h349c35 0 63-28 63-62s-28-63-63-63h-349l143-143c25-24 25-64 0-88-12-13-28-19-44-19s-32 6-44 19l-250 250c-25 24-25 64 0 88z" horiz-adv-x="1000" />
<glyph glyph-name="glyph-141" unicode="&#xe88d;" d="m0 671v-1000h1000v1000h-1000z m938-938h-875v875h875v-875z m-188 719l-312-312-188 187-125-125 313-312 437 437-125 125z" horiz-adv-x="1000" />
<glyph glyph-name="glyph-142" unicode="&#xe88e;" d="m0 671v-1000h1000v1000h-1000z m938-938h-875v875h875v-875z" horiz-adv-x="1000" />
<glyph glyph-name="glyph-143" unicode="&#xe88f;" d="m500 671c-276 0-500-70-500-156v-94l375-375v-313c0-34 56-62 125-62 69 0 125 28 125 62v313l375 375v94c0 86-224 156-500 156z m-408-136c24 14 56 26 95 37 86 23 197 36 313 36 116 0 227-13 313-36 39-11 71-23 95-37 15-8 24-16 28-20-4-5-13-12-28-21-24-13-56-26-95-37-86-23-197-36-313-36s-227 13-313 36c-39 11-71 24-95 37-15 9-24 16-27 21 3 4 12 12 27 20z" horiz-adv-x="1000" />
<glyph glyph-name="glyph-144" unicode="&#xe890;" d="m188 608v-750h750v750h-750z m687-687h-625v625h625v-625z m-750-125v625l-62 62v-750h750l-63 63z m294 206l188 187 143-143v375h-375l143-143-187-188z" horiz-adv-x="1000" />
<glyph glyph-name="glyph-145" unicode="&#xe891;" d="m844-17c-44 0-84-18-113-47l-420 210c1 8 2 16 2 25s-1 17-2 25l420 210c29-29 69-48 113-48 86 0 156 70 156 157s-70 156-156 156-156-70-156-156c0-9 0-17 2-25l-421-211c-29 30-69 48-113 48-86 0-156-70-156-156 0-86 70-156 156-156 44 0 84 18 113 47l421-210c-2-8-2-17-2-25 0-86 70-156 156-156s156 70 156 156c0 86-70 156-156 156z" horiz-adv-x="1000" />
<glyph glyph-name="glyph-146" unicode="&#xe892;" d="m546 608c0 0-196 0-262 0-117 0-227-88-227-191 0-106 80-191 199-191 8 0 16 1 24 1-8-15-13-31-13-49 0-29 16-53 36-72-15 0-30 0-46 0-145 0-257-93-257-189 0-95 123-154 268-154 166 0 257 94 257 189 0 76-22 121-91 170-24 17-69 57-69 81 0 28 8 42 50 75 43 34 74 82 74 137 0 66-29 130-85 151h83l59 42z m-91-640c2-9 3-18 3-27 0-76-49-136-191-136-100 0-173 64-173 140 0 75 90 137 191 136 23 0 45-4 65-10 54-38 94-60 105-103z m-161 285c-68 2-132 76-143 164-12 89 33 156 101 154 67-2 131-73 143-161 11-89-34-159-101-157z m519 168v187h-63v-187h-187v-63h187v-187h63v187h187v63z" horiz-adv-x="1000" />
<glyph glyph-name="glyph-147" unicode="&#xe893;" d="m833 850h-666c-92 0-167-75-167-167v-666c0-92 75-167 167-167h666c92 0 167 75 167 167v666c0 92-75 167-167 167z m-583-250h500c9 0 18-2 26-5l-276-322-275 322c7 3 16 5 25 5z m-62-437v375c0 1 0 2 0 3l183-213-181-182c-2 6-2 11-2 17z m562-63h-500c-5 0-11 1-16 2l178 178 88-103 88 103 178-178c-5-1-10-2-16-2z m63 63c0-6-1-11-3-17l-181 182 183 213c0-1 1-2 1-3v-375z" horiz-adv-x="1000" />
<glyph glyph-name="glyph-148" unicode="&#xe894;" d="m427-128c0-74-45-131-174-136-75 43-138 104-182 178 23 58 95 101 178 100 23 0 45-4 65-10 55-38 99-62 110-105 2-9 3-18 3-27z m73 799c-144 0-275-61-366-159 36 20 79 31 124 31 66 0 251 0 251 0l-56-58h-66c46-27 71-82 71-142 0-55-31-100-74-134-42-33-50-47-50-75 0-24 50-59 73-77 81-60 98-99 98-175 0-76-68-153-182-179 55-21 115-32 177-32 276 0 500 224 500 500s-224 500-500 500z m250-375v-125h-62v125h-125v62h125v125h62v-125h125v-62h-125z m-393 43c12-88-27-145-94-143-68 2-132 64-144 152-11 89 34 157 101 155 68-2 126-75 137-164z m-141-295c-73 0-135-25-179-63-24 59-37 123-37 190 0 55 9 109 26 158 7-97 75-172 188-172 9 0 17 1 24 1-7-14-13-31-13-48 0-30 16-46 36-66-15 0-29 0-45 0z" horiz-adv-x="1000" />
<glyph glyph-name="glyph-149" unicode="&#xe895;" d="m562-329h-187v500h-125v172l125 0 0 102c0 140 38 226 204 226h137v-172h-86c-64 0-67-25-67-69l-1-87h155l-18-172-136 0-1-500z" horiz-adv-x="1000" />
<glyph glyph-name="glyph-150" unicode="&#xe896;" d="m833 671h-666c-92 0-167-75-167-167v-667c0-91 75-166 167-166l666 0c92 0 167 75 167 166v667c0 92-75 167-167 167z m17-500h-162v-438h-188v438h-90v143h90v93c0 126 55 201 203 201h171v-154h-140c-41 0-46-22-46-62l0-78h187l-25-143z" horiz-adv-x="1000" />
<glyph glyph-name="glyph-151" unicode="&#xe897;" d="m500 671c276 0 500-224 500-500 0-255-191-466-437-496v371h171l16 125h-187v62c0 35 28 63 62 63h125v125h-125c-104 0-187-84-187-188v-62h-94v-125h94v-371c-247 30-438 241-438 496 0 276 224 500 500 500z" horiz-adv-x="1000" />
<glyph glyph-name="glyph-152" unicode="&#xe898;" d="m1000 481c-37-16-76-27-118-32 43 25 75 65 90 113-39-23-83-40-130-50-37 40-91 65-150 65-113 0-205-92-205-205 0-16 2-32 6-47-171 9-322 91-423 215-18-31-28-66-28-103 0-72 36-134 91-171-33 1-65 10-93 25 0 0 0-1 0-2 0-100 71-182 165-201-17-5-36-8-54-8-13 0-26 2-39 4 26-81 102-141 192-142-70-55-159-88-255-88-17 0-33 1-49 3 91-59 199-93 315-93 377 0 583 313 583 584 0 9 0 18 0 27 40 29 75 65 102 106z" horiz-adv-x="1000" />
<glyph glyph-name="glyph-153" unicode="&#xe899;" d="m833 671h-666c-92 0-167-75-167-167v-667c0-91 75-166 167-166h666c92 0 167 75 167 166v667c0 92-75 167-167 167z m-15-334c1-7 1-14 1-22 0-220-165-475-468-475-92 0-179 27-251 75 13-2 26-3 39-3 77 0 148 27 204 72-72 1-133 50-154 116 10-2 21-3 31-3 15 0 30 2 44 6-76 15-132 83-132 164 0 1 0 1 0 2 22-12 47-20 74-21-44 30-73 81-73 139 0 31 8 60 22 84 81-101 202-167 339-174-3 12-4 25-4 38 0 92 73 167 164 167 47 0 90-20 120-53 37 8 73 22 104 41-12-39-38-72-72-93 33 4 65 13 94 27-22-34-49-63-82-87z" horiz-adv-x="1000" />
<glyph glyph-name="glyph-154" unicode="&#xe89a;" d="m500 671c-276 0-500-224-500-500s224-500 500-500 500 224 500 500-224 500-500 500z m287-353c1-6 1-12 1-19 0-196-149-422-422-422-84 0-162 25-227 67 11-2 23-2 35-2 70 0 133 23 184 63-65 1-119 44-138 103 9-2 18-2 28-2 13 0 26 1 39 5-68 13-119 73-119 145 0 1 0 1 0 2 20-11 43-18 67-19-40 27-66 72-66 124 0 27 7 52 20 74 73-89 182-148 306-155-3 11-4 23-4 34 0 82 66 149 148 149 43 0 81-18 108-47 34 6 66 19 94 36-11-35-34-64-65-82 30 3 59 11 85 23-19-30-45-56-74-77z" horiz-adv-x="1000" />
<glyph glyph-name="linkedin" unicode="&#xe89b;" d="m204 698q0-40-29-68t-75-28q-44 0-72 28t-28 68q0 42 28 69t74 27 73-27 29-69z m-198-790l0 618 192 0 0-618-192 0z m306 420q0 86-4 198l166 0 10-86 4 0q60 100 190 100 100 0 161-67t61-199l0-366-192 0 0 342q0 134-98 134-70 0-98-72-6-12-6-48l0-356-194 0 0 420z" horiz-adv-x="900" />
<glyph glyph-name="glyph-156" unicode="&#xe89c;" d="m133-63c-73 0-133-59-133-132 0-74 60-133 133-133 74 0 133 59 133 133 0 73-59 132-133 132z m-133 394v-192c125 0 242-48 331-137 88-88 137-206 137-331h192c0 364-296 660-660 660z m0 340v-192c446 0 808-363 808-808h192c0 551-448 1000-1000 1000z" horiz-adv-x="1000" />
<glyph glyph-name="left-open-big" unicode="&#xe89d;" d="m452-20q26-26 0-48-26-26-48 0l-392 394q-24 24 0 50l392 394q22 26 48 0 26-22 0-48l-358-372z" horiz-adv-x="465" />
<glyph glyph-name="glyph-158" unicode="&#xe89e;" d="m773 140c-1 126 103 187 108 190-59 86-150 98-183 99-78 8-152-46-191-46-40 0-101 45-165 44-85-2-164-50-207-126-88-153-23-380 63-504 42-60 92-129 158-126 63 2 87 41 164 41s98-41 165-40c68 1 111 62 153 123 48 70 68 139 69 142-1 1-133 51-134 203z m-126 371c35 43 59 101 52 160-50-2-111-34-147-76-33-37-61-97-53-155 56-4 113 29 148 71z" horiz-adv-x="1000" />
<glyph glyph-name="glyph-159" unicode="&#xe89f;" d="m844 358c-35 0-63-28-63-62v-250c0-34 28-63 63-63s62 29 62 63v250c0 34-28 62-62 62z m-750 0c-35 0-63-28-63-62v-250c0-34 28-63 63-63s62 29 62 63v250c0 34-28 62-62 62z m94-406c0-52 42-94 93-94h32v-125c0-34 28-62 62-62s63 28 63 62v125h62v-125c0-34 28-62 63-62s62 28 62 62v125h31c52 0 94 42 94 94v344h-562v-344z m397 631l39 76c2 4 1 9-3 11s-9 0-11-3l-40-77c-31 12-65 18-101 18-36 0-70-6-102-18l-40 77c-2 3-6 5-10 3s-6-7-4-11l40-76c-89-40-153-124-164-225h559c-11 101-75 185-163 225z m-241-176c-25 0-46 20-46 45s21 45 46 45 45-20 45-45c0-25-20-45-45-45z m250 0c-25 0-46 20-46 45s21 45 46 45 45-20 45-45c0-25-20-45-45-45z" horiz-adv-x="1000" />
<glyph glyph-name="glyph-160" unicode="&#xe8a0;" d="m0 171l0 305 375 51v-356z m438 365l499 72v-437h-499z m500-428l-1-437-499 70v367z m-563-359l-375 51 0 308h375z" horiz-adv-x="1000" />
<glyph glyph-name="glyph-161" unicode="&#xe8a1;" d="m832 671h-664c-92 0-168-76-168-168v-664c0-93 76-168 168-168h664c92 0 168 75 168 168v664c0 92-76 168-168 168z m-457-813h-125v438h125v-438z m-62 500c-35 0-63 28-63 63s28 62 63 62 62-28 62-62-28-63-62-63z m500-500h-125v250c0 35-28 63-63 63s-62-28-62-63v-250h-125v438h125v-78c25 36 65 78 109 78 78 0 141-70 141-156v-282z" horiz-adv-x="1000" />
<glyph glyph-name="glyph-162" unicode="&#xe8a2;" d="m500 671c-276 0-500-224-500-500s224-500 500-500c276 0 500 224 500 500s-224 500-500 500z m49-668c-46 3-65 26-101 47-19-102-43-201-114-252-22 155 32 272 57 395-43 72 5 217 96 182 111-44-97-268 42-296 146-29 205 252 115 343-130 132-379 3-348-186 7-46 55-60 19-124-83 19-108 85-105 172 5 143 129 244 253 257 156 18 304-57 324-205 23-166-71-346-238-333z" horiz-adv-x="1000" />
<glyph glyph-name="glyph-163" unicode="&#xe8a3;" d="m833 671h-666c-92 0-167-75-167-167v-667c0-92 75-166 167-166h666c92 0 167 74 167 166v667c0 92-75 167-167 167z m-284-668c-46 3-65 26-101 47-19-102-43-201-114-252-22 155 32 272 57 395-43 72 5 217 96 182 111-44-97-268 42-296 146-29 205 252 115 343-130 132-379 3-348-186 7-46 55-60 19-124-83 19-108 85-105 172 5 143 129 244 253 257 156 18 304-57 324-205 23-166-71-346-238-333z" horiz-adv-x="1000" />
<glyph glyph-name="glyph-164" unicode="&#xe8a4;" d="m822 95c-13 13-43 20-88 21-30 0-67-2-105-8-17 10-35 21-49 34-38 35-69 84-89 137 2 5 3 10 4 14 0 0 21 120 15 161 0 6-1 7-2 12l-2 4c-6 13-17 28-35 27l-11 0c-19 0-35-10-40-25-13-47 1-118 25-210l-6-15c-18-42-39-84-58-121l-3-5c-20-39-38-72-54-100l-17-9c-1-1-30-16-37-20-58-35-96-74-103-105-2-10 0-23 10-29l16-8c7-4 15-5 23-5 41 0 89 51 155 166 76 25 162 45 238 57 58-33 129-55 174-55 8 0 15 0 21 2 8 2 16 7 20 14 9 13 11 31 8 49-1 6-5 13-10 17z m-615-219c7 20 37 61 81 97 3 2 10 9 16 15-46-74-77-103-97-112z m260 600c14 0 21-34 22-65s-7-53-16-69c-8 24-11 62-11 86 0 0-1 48 5 48z m-77-428c9 17 18 34 28 53 24 45 39 80 50 109 23-40 51-75 83-103 5-3 9-7 13-10-66-13-124-29-174-49z m420 4c-5-2-16-4-24-4-24 0-54 11-95 29 16 1 30 2 44 2 24 0 31 0 55-6s24-18 20-21z m72 424l-139 140c-31 30-91 55-134 55h-468c-43 0-78-35-78-78v-844c0-43 35-78 78-78h718c43 0 79 35 79 78v594c0 43-25 103-56 133z m-44-44c3-3 6-7 9-11h-159v160c4-3 8-6 11-10l139-139z m37-683c0-9-7-16-16-16h-718c-9 0-16 7-16 16v844c0 8 7 15 16 15h468c5 0 10 0 16-1v-249h248c1-5 2-11 2-15v-594z" horiz-adv-x="1000" />
<glyph glyph-name="glyph-165" unicode="&#xe8a5;" d="m674 210c-59 28-135 34-190-6 67 7 141-4 190-55 47 53 122 63 189 58-56 37-130 32-189 3z m-24-131c-67 2-131-22-187-58-104 44-237 36-326-39 26 1 51 8 77 11 92 9 192-14 262-78 29 43 70 76 117 98 61 30 131 33 198 33-41 28-93 34-141 33z m232 397l-139 140c-31 30-91 55-134 55h-468c-43 0-78-35-78-78v-844c0-43 35-78 78-78h718c43 0 79 35 79 78v594c0 43-25 103-56 133z m-44-44c3-3 6-7 9-11h-159v160c4-3 8-6 11-10l139-139z m37-683c0-9-7-16-16-16h-718c-9 0-16 7-16 16v844c0 8 7 15 16 15h468c5 0 10 0 16-1v-249h248c1-5 2-11 2-15v-594z" horiz-adv-x="1000" />
<glyph glyph-name="glyph-166" unicode="&#xe8a6;" d="m625 206h43l-50-221-65 311h-104l-75-311-56 311h-109l110-500h107l74 296 67-296h98l126 500h-166z m257 270l-139 140c-31 30-91 55-134 55h-468c-43 0-78-35-78-78v-844c0-43 35-78 78-78h718c43 0 79 35 79 78v594c0 43-25 103-56 133z m-44-44c3-3 6-7 9-11h-159v160c4-3 8-6 11-10l139-139z m37-683c0-9-7-16-16-16h-718c-9 0-16 7-16 16v844c0 8 7 15 16 15h468c5 0 10 0 16-1v-249h248c1-5 2-11 2-15v-594z" horiz-adv-x="1000" />
<glyph glyph-name="glyph-167" unicode="&#xe8a7;" d="m726 296h-132l-94-138-93 138h-133l159-237-179-263h256v89h-59l49 73 109-162h137l-179 263z m156 180l-139 140c-31 30-91 55-134 55h-468c-43 0-78-35-78-78v-844c0-43 35-78 78-78h718c43 0 79 35 79 78v594c0 43-25 103-56 133z m-44-44c3-3 6-7 9-11h-159v160c4-3 8-6 11-10l139-139z m37-683c0-9-7-16-16-16h-718c-9 0-16 7-16 16v844c0 8 7 15 16 15h468c5 0 10 0 16-1v-249h248c1-5 2-11 2-15v-594z" horiz-adv-x="1000" />
<glyph glyph-name="right-open-big" unicode="&#xe8a8;" d="m13-20l358 370-358 372q-26 26 0 48 26 26 48 0l392-394q24-26 0-50l-392-394q-22-26-48 0-26 22 0 48z" horiz-adv-x="465" />
<glyph glyph-name="mail" unicode="&#xe8a9;" d="m929 11v428q-18-20-39-37-149-114-238-188-28-24-46-38t-48-27-57-13h-2q-26 0-57 13t-48 27-46 38q-88 74-238 188-21 17-39 37v-428q0-8 6-13t12-5h822q7 0 12 5t6 13z m0 586v14t-1 7-1 7-3 5-5 4-8 2h-822q-7 0-12-6t-6-12q0-94 82-159 108-85 224-177 4-2 20-16t25-21 25-18 28-15 24-5h2q11 0 24 5t28 15 25 18 25 21 20 16q116 92 224 177 30 24 56 65t26 73z m71 21v-607q0-37-26-63t-63-27h-822q-36 0-63 27t-26 63v607q0 37 26 63t63 26h822q37 0 63-26t26-63z" horiz-adv-x="1000" />
<glyph glyph-name="chat" unicode="&#xe8aa;" d="m290 240l350 0q2 0 6 2l4 0 0-92q0-40-29-70t-71-30l-250 0-150-150 0 150-50 0q-40 0-70 30t-30 70l0 300q0 42 30 71t70 29l190 0 0-310z m610 560q42 0 71-29t29-71l0-300q0-40-29-70t-71-30l-50 0 0-150-150 150-350 0 0 400q0 42 30 71t70 29l450 0z" horiz-adv-x="1000" />
<glyph glyph-name="left-circle" unicode="&#xe8ab;" d="m1000 349q0-136-67-251t-182-182-251-67-251 67-182 182-67 251 67 251 182 182 251 67 251-67 182-182 67-251z m-453-232l71 71-161 161 161 161-71 71-233-232z" horiz-adv-x="1000" />
<glyph glyph-name="right-circle" unicode="&#xe8ac;" d="m1000 349q0-136-67-251t-182-182-251-67-251 67-182 182-67 251 67 251 182 182 251 67 251-67 182-182 67-251z m-547-232l233 232-233 232-71-71 161-161-161-161z" horiz-adv-x="1000" />
</font>
</defs>
</svg>
